osu file format v14

[General]
AudioFilename: Muse - Reapers [Official Lyric Video].mp3
AudioLeadIn: 1500
PreviewTime: -1
Countdown: 1
SampleSet: None
StackLeniency: 0.7
Mode: 0
LetterboxInBreaks: 1
WidescreenStoryboard: 0

[Editor]
DistanceSpacing: 1
BeatDivisor: 4
GridSize: 8
TimelineZoom: 0.1

[Metadata]
Title:Muse - Repears
TitleUnicode:Muse - Repears
Artist:Screb Lerd
ArtistUnicode:Screb Lerd
Creator:redviktor123
Version:Normal
Source:Muse
Tags:Muse
BeatmapID:742696
BeatmapSetID:335517

[Difficulty]
HPDrainRate:7
CircleSize:6
OverallDifficulty:8
ApproachRate:7
SliderMultiplier:1.5
SliderTickRate:1

[Events]
//Background and Video events
//Break Periods
//Storyboard Layer 0 (Background)
//Storyboard Layer 1 (Fail)
//Storyboard Layer 2 (Pass)
//Storyboard Layer 3 (Foreground)
//Storyboard Sound Samples

[TimingPoints]
0,500,4,1,0,100,1,0

[HitObjects]
64,64,1500,5,0,0:0:0:0:
224,64,2000,1,0,0:0:0:0:
80,144,2500,1,0,0:0:0:0:
256,120,3125,1,0,0:0:0:0:
104,208,3750,1,0,0:0:0:0:
264,200,4250,1,0,0:0:0:0:
80,280,4875,1,0,0:0:0:0:
264,304,5500,1,0,0:0:0:0:
72,344,6125,1,0,0:0:0:0:
232,232,6750,1,0,0:0:0:0:
48,248,7375,1,0,0:0:0:0:
200,160,8000,1,0,0:0:0:0:
40,152,8500,1,0,0:0:0:0:
128,176,8750,1,0,0:0:0:0:
336,168,9500,1,0,0:0:0:0:
200,80,10000,1,0,0:0:0:0:
288,200,10500,1,0,0:0:0:0:
200,136,10875,1,0,0:0:0:0:
256,184,11125,1,0,0:0:0:0:
168,112,11500,1,0,0:0:0:0:
272,136,11875,1,0,0:0:0:0:
288,40,12250,1,0,0:0:0:0:
224,72,12500,1,0,0:0:0:0:
296,88,12750,1,0,0:0:0:0:
208,128,13125,1,0,0:0:0:0:
280,144,13375,1,0,0:0:0:0:
216,184,13625,1,0,0:0:0:0:
168,208,13750,1,0,0:0:0:0:
208,208,13875,1,0,0:0:0:0:
240,208,14000,1,0,0:0:0:0:
240,208,14125,1,0,0:0:0:0:
240,208,14250,1,0,0:0:0:0:
240,208,14375,1,0,0:0:0:0:
240,208,14500,1,0,0:0:0:0:
240,208,14625,1,0,0:0:0:0:
240,208,14750,1,0,0:0:0:0:
240,208,15000,1,0,0:0:0:0:
240,208,15125,1,0,0:0:0:0:
240,208,15250,1,0,0:0:0:0:
240,208,15375,1,0,0:0:0:0:
200,168,15625,1,0,0:0:0:0:
184,128,15750,1,0,0:0:0:0:
232,104,15875,1,0,0:0:0:0:
272,96,16000,1,0,0:0:0:0:
304,96,16125,1,0,0:0:0:0:
328,112,16250,1,0,0:0:0:0:
328,136,16375,1,0,0:0:0:0:
288,160,16500,1,0,0:0:0:0:
248,176,16625,1,0,0:0:0:0:
208,184,16750,1,0,0:0:0:0:
184,128,16875,1,0,0:0:0:0:
272,96,17000,1,0,0:0:0:0:
328,112,17125,1,0,0:0:0:0:
328,144,17250,1,0,0:0:0:0:
304,160,17375,1,0,0:0:0:0:
272,160,17500,1,0,0:0:0:0:
384,152,17875,1,0,0:0:0:0:
288,160,18000,1,0,0:0:0:0:
272,160,18250,1,0,0:0:0:0:
296,184,18375,1,0,0:0:0:0:
312,200,18500,1,0,0:0:0:0:
344,224,18625,1,0,0:0:0:0:
320,264,18750,1,0,0:0:0:0:
320,264,18875,1,0,0:0:0:0:
256,232,19125,1,0,0:0:0:0:
240,216,19250,1,0,0:0:0:0:
272,176,19375,1,0,0:0:0:0:
312,136,19625,1,0,0:0:0:0:
328,120,19750,1,0,0:0:0:0:
304,120,19875,1,0,0:0:0:0:
264,128,20000,1,0,0:0:0:0:
240,160,20125,1,0,0:0:0:0:
240,200,20250,1,0,0:0:0:0:
256,232,20375,1,0,0:0:0:0:
280,256,20500,1,0,0:0:0:0:
288,288,20625,1,0,0:0:0:0:
264,304,20750,1,0,0:0:0:0:
224,304,20875,1,0,0:0:0:0:
